#TITLE:Sorry Sorry;
#SUBTITLE:;
#ARTIST:Super Junior;
#TITLETRANSLIT:;
#SUBTITLETRANSLIT:;
#ARTISTTRANSLIT:;
#CREDIT:Chu Nhat , 16-8-2009;
#BANNER:sorry-bn.jpg;
#BACKGROUND:sorry-bg.jpg;
#LYRICSPATH:;
#CDTITLE:cdtitle.png;
#MUSIC:Sorry-Sorry.ogg;
#OFFSET:0.000;
#SAMPLESTART:59.020;
#SAMPLELENGTH:20.000;
#SELECTABLE:YES;
#DISPLAYBPM:130.000;
#BPMS:0.000=130.000,1.000=260.000,3.500=130.000,16.000=260.000,32.000=130.000,46.000=260.000,48.000=130.000,52.000=260.000,64.000=130.000,124.000=260.000,127.000=130.000,142.500=260.000,143.000=260.000,143.500=130.000,156.000=260.000,163.500=130.000,189.500=260.000,191.000=130.000,201.000=260.000,202.000=130.000,203.000=260.000,204.000=130.000,205.000=260.000,206.000=130.000,209.000=260.000,210.000=130.000,211.000=260.000,212.000=130.000,213.000=260.000,214.000=130.000,215.000=260.000,216.000=130.000,284.000=260.000,287.000=130.000,302.500=260.000,304.000=130.000,316.000=260.000,320.000=130.000,336.000=260.000,352.000=130.000;
#STOPS:1.000=0.231
,2.000=0.231
,3.000=0.115
,16.125=0.057
,16.375=0.057
,16.625=0.057
,16.875=0.057
,17.500=0.231
,18.125=0.057
,18.375=0.057
,18.625=0.057
,18.875=0.057
,19.500=0.231
,20.125=0.057
,20.375=0.057
,20.625=0.057
,20.875=0.057
,21.500=0.231
,22.125=0.057
,22.375=0.057
,22.625=0.057
,22.875=0.057
,23.500=0.231
,24.000=0.231
,25.000=0.231
,26.000=0.231
,27.000=0.231
,28.000=0.115
,28.500=0.115
,29.000=0.115
,29.500=0.115
,30.000=0.115
,30.500=0.115
,31.000=0.115
,31.500=0.115
,46.000=0.115
,46.500=0.115
,47.000=0.115
,47.500=0.115
,52.250=0.115
,52.750=0.115
,53.250=0.115
,53.750=0.115
,54.250=0.115
,54.750=0.115
,55.250=0.115
,55.750=0.115
,56.250=0.115
,56.750=0.115
,57.250=0.115
,57.750=0.115
,58.250=0.115
,58.750=0.115
,59.250=0.115
,59.750=0.115
,60.000=0.115
,60.500=0.115
,61.000=0.115
,61.500=0.115
,62.000=0.115
,62.500=0.115
,63.000=0.115
,63.750=0.115
,124.250=0.115
,124.750=0.115
,125.250=0.115
,125.750=0.115
,126.250=0.115
,126.750=0.115
,142.500=0.115
,143.000=0.115
,156.000=0.115
,156.500=0.115
,157.000=0.115
,157.500=0.115
,158.000=0.115
,158.500=0.115
,159.000=0.115
,159.500=0.115
,160.000=0.231
,161.000=0.231
,162.000=0.231
,163.000=0.115
,189.500=0.115
,190.000=0.115
,190.500=0.115
,201.125=0.057
,201.375=0.057
,201.625=0.057
,201.875=0.057
,203.125=0.057
,203.375=0.057
,203.625=0.057
,203.875=0.057
,205.125=0.057
,205.375=0.057
,205.625=0.057
,205.875=0.057
,209.000=0.057
,209.250=0.057
,209.500=0.057
,209.750=0.057
,211.000=0.057
,211.250=0.057
,211.500=0.057
,211.750=0.057
,213.000=0.057
,213.250=0.057
,213.500=0.057
,213.750=0.057
,215.000=0.057
,215.250=0.057
,215.500=0.057
,215.750=0.057
,284.125=0.057
,284.375=0.057
,284.625=0.057
,284.875=0.057
,285.125=0.057
,285.375=0.057
,285.625=0.057
,285.875=0.057
,286.125=0.057
,286.375=0.057
,286.625=0.057
,286.875=0.057
,302.750=0.115
,303.250=0.115
,303.750=0.115
,316.000=0.115
,316.500=0.115
,317.000=0.115
,317.500=0.115
,318.000=0.115
,318.500=0.115
,319.000=0.115
,319.500=0.115
,336.125=0.057
,336.375=0.057
,336.625=0.057
,336.875=0.057
,337.000=0.231
,338.125=0.057
,338.375=0.057
,338.625=0.057
,338.875=0.057
,339.000=0.231
,340.125=0.057
,340.375=0.057
,340.625=0.057
,340.875=0.057
,341.000=0.231
,342.125=0.057
,342.375=0.057
,342.625=0.057
,342.875=0.057
,343.000=0.231
,344.000=0.231
,345.000=0.231
,346.000=0.231
,347.000=0.231
,348.000=0.115
,348.500=0.115
,349.000=0.115
,349.500=0.115
,350.000=0.115
,350.500=0.115
,351.000=0.115
,351.500=0.115
;
#BGCHANGES:;
// cache tags:
#FIRSTBEAT:0.000;
#LASTBEAT:371.000;
#SONGFILENAME:Songs/Music V.I.P ^_^/Sorry Sorry/Sorry-Sorry.sm;
#HASMUSIC:1;
#HASBANNER:1;
#MUSICLENGTH:170.965;
// end cache tags

//---------------dance-single - ----------------
#NOTES:
     dance-single:
     :
     Challenge:
     12:
     1.000,1.000,1.000,0.942,0.477,850.000,395.000,161.000,0.000,92.000:
1001
0000
0101
0000
1001
0000
0101
1010
,
0000
1001
0000
1100
0011
0110
1100
0100
,
1010
0000
0201
0000
1310
0101
0020
1001
,
0130
0011
0120
1100
0130
0011
0120
1130
,
0002
0023
2030
3200
0320
0000
0000
0000
2030
3200
0302
0023
0230
0000
0000
0000
,
0320
0230
0302
0023
0230
0000
0000
0000
0302
0023
2030
3002
0203
0000
0000
0000
,
1302
0213
2310
3210
,
0312
0123
1230
2310
3210
0321
0132
0123
,
1130
0000
0000
0000
1000
0000
0001
0000
1100
0010
0000
0000
0100
0000
0001
0000
1000
0000
0100
0000
0010
0000
1000
0000
0101
0010
0000
0000
1000
0000
0000
0000
,
0001
0000
1000
0000
0100
0000
0010
0000
1001
0010
0000
0000
0100
0000
0001
0000
1000
0000
0000
0000
1000
0000
0001
0000
1010
0100
0000
0000
0001
0000
0000
0000
,
0100
0000
0000
0000
0001
0000
0010
0000
1001
0100
0000
0000
0010
0000
0100
0000
0010
0000
0000
0000
0001
0000
0000
0000
1001
0000
0000
0000
1000
0000
0000
0000
,
0101
1010
0110
0110
1100
0101
0110
0101
,
1100
0001
0010
0000
1100
0001
0010
0000
1100
0001
0010
0000
1100
0001
0010
0000
,
1100
1001
0110
1010
0110
1010
0110
1010
,
1001
1010
0110
0101
0110
0101
0110
0101
,
0110
1001
0110
0011
1100
0011
1100
0011
,
0110
1000
0101
0010
0100
1000
0101
0010
,
0100
1000
1010
1010
0100
0010
1001
0010
,
0100
0010
0101
0001
0010
0100
1010
1000
,
0100
0000
0000
0000
0101
1000
0100
0010
0001
0010
0101
0010
0101
0000
1000
0000
,
0100
0001
0101
0010
0100
0010
0101
0100
,
0010
0100
0101
0100
0001
0100
0101
0100
,
0001
0100
0101
0100
0010
0100
0101
1010
,
0101
0000
0000
0000
1001
0100
1000
0010
0001
0100
1010
0100
1010
0000
0001
0000
,
1100
0110
0011
0110
1100
0100
1010
0001
,
0010
0100
1100
0110
0011
0110
1200
0000
,
0310
0001
0110
1100
0110
0011
0110
1000
,
0100
0010
1001
0010
1100
0110
0121
0000
,
0130
1000
0101
0010
0001
0010
0101
0110
,
1100
0110
0011
0010
1000
0100
2010
0000
,
3110
1100
0110
1000
0100
0010
0101
0110
,
1100
0110
0011
0110
1100
0110
0021
0000
,
1130
0100
1000
0000
0011
0010
0001
0000
1100
0100
1000
0000
0011
0010
0001
0000
,
0110
0010
0100
0000
0110
0100
0010
0000
0110
0010
0100
0000
0110
0100
0010
0000
,
1001
0001
1000
0000
1001
1000
0001
0000
1001
0001
1000
0000
1001
1000
0001
0000
,
1001
1000
0001
0000
1001
0001
1000
0000
1001
0000
1100
0000
1001
0000
0110
0000
,
1001
0100
0100
0000
1001
0010
0010
0000
1001
0100
0100
0000
1001
0010
0010
0000
,
1100
0100
0010
0000
0011
0010
0100
0000
1100
0100
0010
0000
0011
0010
0100
0000
,
1100
1000
0001
0000
0011
0001
1000
0000
1100
1000
0001
0000
0011
0001
1000
0000
,
0110
0110
1010
0110
1001
1010
0011
0110
,
0110
0000
1100
0000
0011
0000
1001
0110
,
0000
1001
0000
0101
1010
1000
0110
1000
,
0101
0010
0101
0010
1100
0001
1100
0110
,
0001
0000
0101
0000
1001
0100
1001
0010
1001
0100
1001
0100
1001
0000
0100
0000
,
1001
0010
0101
1000
0011
0010
0101
1010
,
0001
1100
1000
0011
0001
0101
0001
0101
,
0101
1000
0011
0001
1100
0100
0011
0101
,
0001
0000
1100
0000
0010
0000
1100
0000
0011
0000
1100
0000
0011
0000
1100
0010
,
0002
0100
0010
0100
1013
0000
1000
0000
0102
0010
0100
1000
0103
0000
1000
0000
,
2100
0010
0001
0100
3010
0000
0010
0000
1002
0010
0100
0010
2103
0000
0100
0000
,
3201
0010
1000
0010
0302
0023
2030
3200
0312
0100
1000
0010
2003
3020
0230
0302
,
1023
0100
1000
0001
0230
2300
3020
0230
0302
1000
0110
0000
0213
0000
1010
0000
,
1321
0000
1000
0000
0131
1000
0100
1000
0120
0000
1000
0000
0130
1000
0100
1000
,
0102
0000
1000
0000
1003
0100
1000
0100
1002
0000
1000
0000
1003
0100
1000
0100
,
1012
0100
0010
1000
0123
1000
0100
0001
1230
0001
0010
0001
2310
0001
0100
0001
,
3210
1000
0321
1000
0132
1000
0123
0001
1230
0001
2310
0001
3210
1000
0321
1000
,
0131
0000
1000
0100
0011
0000
0100
0000
0010
0000
0001
0000
1010
0000
0100
0000
,
2000
0000
0000
3000
1010
0000
0100
0010
0001
0000
0001
0000
0101
0000
0001
0000
,
0002
0003
1001
0000
1001
0000
1001
0110
,
0000
0000
1001
0000
0110
0000
0210
0300
0012
0003
0120
0030
1200
0300
2010
3000
,
0011
0000
0001
0010
0001
0000
0100
0000
1000
0000
0100
0000
1010
0000
0001
0000
,
0101
0010
0101
1000
0100
0010
0101
0001
,
0100
1000
0101
0000
0101
0000
1001
0120
,
1000
0030
0001
0000
1120
0000
1100
0030
1101
0000
1120
0000
1101
0030
0100
0000
,
1001
0100
1001
0010
0100
0010
1010
1000
,
0001
0001
0101
2001
3210
2301
3211
0301
,
0110
1100
0101
0110
0101
1100
1001
0110
,
0011
0000
0000
0000
1100
0000
0000
0000
0110
0000
0000
0000
0011
0000
0000
0000
0110
0000
0000
0000
0210
0000
0000
0000
0011
0000
0000
0300
0001
0000
0000
0000
,
2000
3200
0320
0032
2003
3200
0320
0032
1103
0000
0000
0000
0100
0000
0000
0000
0001
0000
0000
0000
0010
0000
0000
0000
0110
0000
0000
0000
0010
0000
0000
0000
,
0100
1000
1100
0100
0010
0100
0210
0300
,
0010
0100
0110
0100
0010
0100
0110
1000
,
1102
0023
1132
0023
1132
0023
1132
0023
1132
0023
1132
0023
1132
0000
0000
0000
,
1103
0010
0100
0000
0110
0100
0010
0000
0011
0001
0010
0000
0110
0010
0100
0000
,
1100
1000
0100
0000
0110
0100
0010
0000
0011
0001
0010
0000
0110
0010
0100
0000
,
1100
1000
0100
0000
0011
0001
0010
0000
0110
0100
0010
0000
0110
0010
0100
0000
,
1010
1000
0010
0000
0101
0001
0100
0000
1001
1000
0110
0000
1001
0000
0110
0000
,
1010
0100
0010
0000
0101
0001
0100
0000
1010
0100
0100
0000
0101
0010
0010
0000
,
1010
0001
1000
0000
0101
1000
0001
0000
1100
0010
1000
0000
0011
0100
0001
0000
,
1010
0001
0010
0000
0101
1000
0100
0000
0110
1000
0001
0000
0110
0001
1000
0000
,
0011
1010
0110
1010
1100
0101
0110
1010
,
1001
0000
0101
0000
2001
3000
0101
1010
,
0010
1001
0020
1130
0011
0110
2100
3100
,
1010
0000
0201
0300
1010
0101
0020
1031
,
0100
0011
0120
1132
0103
0011
0120
1230
,
0302
0023
2030
3200
0320
0000
0000
0000
2030
3200
0302
0023
0230
0000
0000
0000
,
0320
0230
0302
0023
0230
0000
0000
0000
2300
3200
0302
0023
0230
0000
0000
0000
,
1302
0213
2310
3210
,
0312
0123
1230
2310
3210
0321
0132
0123
,
2130
0000
0011
0000
0001
0100
0011
0100
,
0001
0100
0011
0100
0001
0100
0011
0100
,
0001
0000
0100
0000
0011
0000
0100
0000
0001
0000
0010
0100
0011
0100
0020
0030
,
0011
0000
0101
0000
0011
0000
0101
0000
0011
0000
0101
0000
0021
0030
0200
0300
,
3021
0000
0000
0030
;

//---------------dance-single - ----------------
#NOTES:
     dance-single:
     :
     Hard:
     11:
     0.972,1.000,1.000,0.240,0.339,784.000,332.000,41.000,0.000,27.000:
1001
0000
0000
0000
0000
0000
0000
0000
1010
0000
0000
0000
0000
0000
0000
0000
0100
0001
0000
0000
0000
0000
0000
0000
1100
0000
0000
0000
0010
0000
0000
0000
,
1000
0010
0100
1000
0101
0100
0011
0000
,
1001
0000
1010
0000
0100
0001
1100
0010
,
1001
0010
0101
1000
0101
0101
1010
0101
,
1000
0100
0010
0100
1002
0000
0000
0000
0103
1000
0010
1000
0102
0000
0010
0000
,
1003
0100
0010
0100
1020
0000
0100
0000
0031
1000
0100
1000
0012
0000
0000
0000
,
1103
0201
1300
1102
,
1003
0001
1000
0001
1000
0001
1000
0001
,
1010
0001
0110
0001
1010
0001
0110
0001
,
1010
0100
0011
0100
1010
0001
1010
0010
,
1100
0010
0101
0010
1100
0010
0101
0010
,
0101
1000
0011
1000
0101
1011
0011
0100
,
1010
0001
1100
0001
1010
0100
1001
0100
,
0011
1000
0101
1000
0011
1000
0101
1000
,
0110
0001
1100
0001
0110
1001
0110
0001
,
1010
0100
1001
0010
0001
1100
0110
0011
,
1100
0000
1001
0000
1100
0000
0101
0010
,
1000
0010
0100
1000
0011
0000
0101
0000
,
1001
0000
1010
0000
1100
0000
0101
0010
,
1000
0000
0010
0000
0100
0010
1000
0100
0001
0010
1001
0100
1010
0000
0100
0000
,
1010
0000
1001
0000
1100
0000
0101
0010
,
1001
0010
0101
1000
0011
0000
0101
0000
,
1100
0000
1001
0000
0100
0000
0101
0010
,
1000
0000
0010
0000
0100
0010
1000
0100
0001
0100
0011
1000
0110
0000
1010
0000
,
0001
0100
1001
0100
0010
1000
0011
1000
,
0100
0001
1100
0010
0001
0001
2010
0000
,
3100
0001
1100
0001
0010
1000
0011
0100
,
0001
0010
1001
0100
1000
0011
2002
0000
,
3103
0010
1001
0010
0100
1000
0011
1000
,
0001
0010
1100
0001
0010
0010
2001
0000
,
3100
0010
1001
0010
0100
0010
1001
0010
,
0100
0100
0011
0010
1001
1001
2002
0000
,
3013
0000
0100
0000
0011
0000
0100
0000
0010
0001
0010
0100
1010
0001
0110
0000
,
0001
1000
0011
1000
0001
0100
0011
0100
,
1000
0000
0010
0000
1001
0000
0010
0000
1100
0010
1001
0010
1001
0100
1010
0000
,
0010
0100
1010
0100
0001
0101
1100
1000
,
0010
0000
1000
0000
0110
0000
1000
0000
0010
0100
0010
0100
1010
0001
0010
0000
,
0001
0100
0011
1000
0001
0100
0011
0100
,
1000
0000
0010
0000
1001
0000
0010
0000
1000
0010
1000
0001
1100
0010
1000
0000
,
0011
1100
0011
1100
0011
0110
1001
1001
,
0101
0000
1100
0000
0110
0000
1001
1010
,
0000
0011
0000
0110
1100
1100
0011
0000
,
1001
0000
1100
0000
1001
0000
0110
1001
,
0000
0000
1001
0000
1000
0001
0010
0001
0010
0100
1010
0100
1001
0000
0010
0000
,
1100
0000
0101
0000
0011
0000
1001
0110
,
0000
1100
0000
0011
0110
1001
0110
1001
,
0110
0000
1100
0000
0011
0000
1010
0110
,
1010
0011
0101
0110
0101
0101
1010
0010
,
2010
0001
0100
0010
3001
0100
0001
1000
0201
1000
0001
0010
1300
0010
0100
1000
,
0012
0100
1000
0100
0013
1000
0001
1000
0210
0001
1000
0010
0302
0100
1000
0010
,
0203
0010
1000
0010
1301
0010
1001
0100
2001
0010
0100
0010
3101
0010
0101
0010
,
0102
1000
0100
0010
1103
0010
1100
0010
1200
0010
1001
0010
1301
0010
0100
1000
,
0012
0100
1000
0100
1013
0101
1010
0101
2010
0000
0000
0000
3101
1010
0101
1010
,
0102
0000
0000
0000
1013
0101
1010
0101
2010
0000
0000
0000
3101
1010
0101
1010
,
0102
0000
0000
0000
2013
0100
0010
0100
3012
0000
0000
0000
2013
0100
0010
0100
,
3011
0110
1100
0110
0011
0110
1100
0110
,
1001
0010
1000
0100
0011
1000
0110
1001
,
0010
1100
0001
0110
1010
1010
1100
0001
,
0110
1000
0101
0010
1100
0001
1010
0110
,
1000
0101
0010
1010
0101
0101
0011
0001
,
1100
0001
0110
1000
0101
0010
1100
0011
,
1000
0101
1000
0011
0110
0110
1100
0001
,
0110
1000
0101
0010
0110
0001
1010
0101
,
1100
0110
1001
0110
1100
0110
1001
1010
,
1000
0010
1001
0010
0100
0001
1100
0001
,
0010
1000
0011
0100
1000
1000
0101
0010
,
0100
1000
0011
1000
0100
0001
1100
0010
,
1000
0100
1001
0010
0001
1100
0110
0010
,
0001
0010
1001
0100
0010
0001
1100
0001
,
1000
0100
0011
1000
0100
0100
1002
0000
,
0013
0000
0100
0000
1001
0000
0100
0000
0010
0000
0100
0000
1001
0000
1000
0100
,
0010
0001
0010
0100
1000
0100
0010
0100
1001
0010
1001
0100
2002
0000
0000
0000
,
3103
0000
0010
0000
1100
0000
0010
0000
0100
1000
0100
0010
0101
1000
0110
0000
,
1000
0001
1100
0001
1000
0010
1100
0010
,
0001
0000
0010
0000
1001
0000
0100
0000
0011
0100
1001
0100
1001
0010
0101
0000
,
0100
0010
0101
0010
1000
1010
0011
0001
,
0100
0000
0001
0000
0110
0000
0001
0000
0100
0010
0100
0010
0101
1000
0100
0000
,
1000
0010
1100
0001
1000
0010
1100
0010
,
0001
0000
0100
0000
1001
0000
0100
0000
0001
0100
0001
1000
0011
0100
0001
0000
,
0010
0100
0010
0100
0001
0010
1000
1000
,
0101
1000
0100
0000
0011
0000
0000
0000
1010
0100
0001
0100
0011
0100
1000
0000
,
0100
0001
1000
0000
0001
0000
0100
0000
1010
0000
0100
0000
0110
0000
0000
0010
,
1001
0010
0010
0000
0101
0000
0000
0000
0011
0100
0010
0001
1100
0001
0110
0000
,
0001
0010
1000
0001
0110
0101
1001
0010
,
1000
0100
1001
0010
0102
0000
0000
0000
1003
0100
1010
0010
0102
0000
0000
0000
,
1003
0100
1001
0010
0102
0000
0000
0000
0103
1000
0100
1000
0012
0000
0000
0000
,
1203
0321
1230
0321
,
0130
1011
0010
1101
0100
1011
0010
0111
,
2001
0010
0001
0100
0010
0100
0001
0100
,
0010
0100
0001
0100
0010
0100
0001
0100
,
3010
0100
0001
0100
0010
0100
0001
0100
,
1010
1100
1001
1100
0010
1100
0011
0011
;
